i666 yd1q km8e 8os2 24wi k4ia q6c4 nplb s35b 9jjh

最近看过此主题的会员

查看: 354|回复: 6
打印 上一主题 下一主题

原抓《动感新势力》VOL.36 两张CD WAV/分轨/度盘 附VCD(曲名....

[复制链接]

270

主题

1432

帖子

7万

积分

天王巨星

Rank: 7Rank: 7Rank: 7

积分
71205
跳转到指定楼层
1#
发表于 2018-5-20 20:18:12 | 只看该作者 |只看大图 回帖奖励 |倒序浏览 |阅读模式

注册会员,获得无损资源下载地址,享受高品质音乐。

您需要 登录 才可以下载或查看,没有帐号?注册

x
本帖最后由 龙王机 于 2018-7-24 13:37 编辑


晕死,35期的CD挂了,我用新买的光驱都读不出来,看来还要上咸鱼淘一本。另外这期36期是两张CD,除了“初花”外,还有一张“下川みくに青春动画歌曲翻唱专辑”,是下川翻唱的一些著名的老动画歌曲,粉丝们不要错过哈。

初花:
01 调和之音~with reflection~---银发的阿吉特 OP
02 爱之旋律---银发的阿吉特 ED
03 Theme of PATLABOR2---机动警察 PATLABOR2 主题乐
04 Light colors---智代After OP
05 梦之翼---翼·年代记 IN
06 Hallucination---机动警察 PATLABOR2 ED
07 月光花---BLACK JACK OP1
08 RTB-AGL2---战斗妖精雪风 最终话ED
09 Peace of mind---苍穹之FAFNER-RIGHT OF LEFT- OP
10 高尚的部队---高机动幻想~新行军歌~ BGM
11 交响之虹---水星领航员 IN
12 世界的约定---豪尔的移动城 IM
13 谣Ⅲ-Reincarnation----攻壳机动队 ED
14 调和---专辑 trip trip 收录曲

下川みくに青春动画歌曲翻唱专辑:
01 满怀回忆---美雪美雪
02 残酷的天使纲领---新世纪福音战士
03 轮舞~revolution~---少女革命
04 ETERNAL WIND~风中的微笑~---机动战士高达F91
05 可曾记得爱---超时空要塞MACROSS
06 LOVE SONG---北斗神拳
07 KUJIKENAIKARA!---魔剑美神
08 Blue Water---蓝宝石之谜
09 GooD LucK---STREET FIGHTERS
10 夢光年---宇宙船sagittarius
11 Alone---幻想魔传最游记


VCD MTV:
少女们DO MY BEST——舞乙HiME 片尾曲
Everlasting Love——水瓶世纪 片头曲
世界的约定——豪尔的移动城 主题歌
焰の扉——FictionJunction YUUKA

第36期CD与VCD链接:
游客,如果您要查看本帖隐藏内容请回复
提取码:
游客,如果您要查看本帖隐藏内容请回复


解压密码均为:龙王机原抓CD包音乐论坛首发


有链接或密码上的错误别忘了私信我哈。

评分

参与人数 1CD +400 收起 理由
最终之战 + 400 感谢分享资源,CD包因你而精彩.

查看全部评分




上一篇:原抓《动感新势力》VOL.34 WAV/分轨/度盘 木有VCD(曲名已添...
下一篇:原抓《动感新势力》VOL.37 CD WAV/分轨/度盘 附VCD(曲名已添...

270

主题

1432

帖子

7万

积分

天王巨星

Rank: 7Rank: 7Rank: 7

积分
71205
2#
 楼主| 发表于 2018-5-20 20:18:45 | 只看该作者
Exact Audio Copy V1.1 from 23. June 2015

EAC 抓取日志文件从18. 五月 2018, 17:18

Various / 初花

使用驱动器  :ASUS    DRW-24D5MT   Adapter: 1  ID: 0

读取模式      : 可靠Secure
使用精确流     : 是
清空音频缓存    : 是
使用 C2 指示器 : 是

读取偏移校正:               : 0
读取 Lead-In 和 Lead-Out : 否
用静音填充抓取中丢失偏移的采样       : 是
去除首尾静音块               : 否
在CRC 计算中使用了空样本       : 是
已用接口                  : Win NT 及 2000 本地 Win32 接口
间隙处理                  : 没检测到,因此追加到上一曲目

所用输出模式: : 内部 WAV 函数
样本格式    : 44.100 Hz; 16 Bit; 立体声


已抓取 CD 的 TOC

     音轨 |    起始    |    长度    |  起始扇区  |  结束扇区  
    --------------------------------------------
      1 |  0:00.00 |  4:38.70 |      0 |  20919
      2 |  4:38.70 |  5:41.64 |  20920 |  46558
      3 | 10:20.59 |  2:20.10 |  46559 |  57068
      4 | 12:40.69 |  6:40.00 |  57069 |  87068
      5 | 19:20.69 |  4:36.40 |  87069 | 107808
      6 | 23:57.34 |  4:31.62 | 107809 | 128195
      7 | 28:29.21 |  5:00.45 | 128196 | 150740
      8 | 33:29.66 |  4:37.00 | 150741 | 171515
      9 | 38:06.66 |  6:02.03 | 171516 | 198668
     10 | 44:08.69 |  2:56.13 | 198669 | 211881
     11 | 47:05.07 |  5:18.40 | 211882 | 235771
     12 | 52:23.47 |  4:22.73 | 235772 | 255494
     13 | 56:46.45 |  5:41.73 | 255495 | 281142
     14 | 62:28.43 |  4:30.36 | 281143 | 301428


音轨  1

     文件名 K:\音乐\动感新势力\2006年\VOL.36\学习资料36\01 调和之音~with reflection~ - Various.wav

     峰值电平 81.2 %
     抓取速度 1.5 X
     音轨质量 100.0 %
     复制 CRC 7B331446
     复制成功

音轨  2

     文件名 K:\音乐\动感新势力\2006年\VOL.36\学习资料36\02 爱之旋律 - Various.wav

     峰值电平 78.5 %
     抓取速度 1.8 X
     音轨质量 100.0 %
     复制 CRC F52F3EBC
     复制成功

音轨  3

     文件名 K:\音乐\动感新势力\2006年\VOL.36\学习资料36\03 Theme of PATLABOR2 - Various.wav

     峰值电平 100.0 %
     抓取速度 1.6 X
     音轨质量 100.0 %
     复制 CRC C95FCCCE
     复制成功

音轨  4

     文件名 K:\音乐\动感新势力\2006年\VOL.36\学习资料36\04 Light colors - Various.wav

     峰值电平 78.4 %
     抓取速度 2.1 X
     音轨质量 100.0 %
     复制 CRC A9373CFC
     复制成功

音轨  5

     文件名 K:\音乐\动感新势力\2006年\VOL.36\学习资料36\05 梦之翼 - Various.wav

     峰值电平 89.1 %
     抓取速度 2.1 X
     音轨质量 100.0 %
     复制 CRC 35E3E4F2
     复制成功

音轨  6

     文件名 K:\音乐\动感新势力\2006年\VOL.36\学习资料36\06 Hallucination - Various.wav

     峰值电平 100.0 %
     抓取速度 1.9 X
     音轨质量 99.9 %
     复制 CRC 7F7C7191
     复制成功

音轨  7

     文件名 K:\音乐\动感新势力\2006年\VOL.36\学习资料36\07 月光花 - Various.wav

     峰值电平 83.5 %
     抓取速度 2.4 X
     音轨质量 100.0 %
     复制 CRC 0870C67A
     复制成功

音轨  8

     文件名 K:\音乐\动感新势力\2006年\VOL.36\学习资料36\08 RTB-AGL2 - Various.wav

     峰值电平 79.9 %
     抓取速度 2.5 X
     音轨质量 100.0 %
     复制 CRC C00C6B19
     复制成功

音轨  9

     文件名 K:\音乐\动感新势力\2006年\VOL.36\学习资料36\09 Peace of mind - Various.wav

     峰值电平 79.2 %
     抓取速度 2.5 X
     音轨质量 99.9 %
     复制 CRC 863B3A8B
     复制成功

音轨 10

     文件名 K:\音乐\动感新势力\2006年\VOL.36\学习资料36\10 高尚的部队 - Various.wav

     峰值电平 100.0 %
     抓取速度 2.5 X
     音轨质量 100.0 %
     复制 CRC 1949DDDA
     复制成功

音轨 11

     文件名 K:\音乐\动感新势力\2006年\VOL.36\学习资料36\11 交响之虹 - Various.wav

     峰值电平 90.1 %
     抓取速度 2.9 X
     音轨质量 100.0 %
     复制 CRC 01AEE188
     复制成功

音轨 12

     文件名 K:\音乐\动感新势力\2006年\VOL.36\学习资料36\12 世界的约定 - Various.wav

     峰值电平 100.0 %
     抓取速度 2.9 X
     音轨质量 100.0 %
     复制 CRC B74027DF
     复制成功

音轨 13

     文件名 K:\音乐\动感新势力\2006年\VOL.36\学习资料36\13 谣Ⅲ-Reincarnation- - Various.wav

     峰值电平 100.0 %
     抓取速度 3.1 X
     音轨质量 100.0 %
     复制 CRC 6EFE5F27
     复制成功

音轨 14

     文件名 K:\音乐\动感新势力\2006年\VOL.36\学习资料36\14 调和 - Various.wav

     峰值电平 100.0 %
     抓取速度 2.2 X
     音轨质量 99.9 %
     复制 CRC 42ABF10C
     复制成功

没有错误发生

状态报告结尾

---- CUETools DB Plugin V2.1.6

[CTDB TOCID: 9vSv8X8IV_Ce7DN.nt8waVm4eFs-] found
Submit result: 9vSv8X8IV_Ce7DN.nt8waVm4eFs- has been confirmed
Track | CTDB Status
  1   | (5/5) Accurately ripped
  2   | (5/5) Accurately ripped
  3   | (5/5) Accurately ripped
  4   | (5/5) Accurately ripped
  5   | (5/5) Accurately ripped
  6   | (5/5) Accurately ripped
  7   | (5/5) Accurately ripped
  8   | (5/5) Accurately ripped
  9   | (5/5) Accurately ripped
10   | (5/5) Accurately ripped
11   | (5/5) Accurately ripped
12   | (5/5) Accurately ripped
13   | (5/5) Accurately ripped
14   | (5/5) Accurately ripped

270

主题

1432

帖子

7万

积分

天王巨星

Rank: 7Rank: 7Rank: 7

积分
71205
3#
 楼主| 发表于 2018-5-20 20:19:18 | 只看该作者
Exact Audio Copy V1.1 from 23. June 2015

EAC 抓取日志文件从19. 五月 2018, 15:00

下川みくに / Review ?下川みくに 青春アニソンカバーアルバム?

使用驱动器  :ASUS    DRW-24D5MT   Adapter: 1  ID: 0

读取模式      : 可靠Secure
使用精确流     : 是
清空音频缓存    : 是
使用 C2 指示器 : 是

读取偏移校正:               : 0
读取 Lead-In 和 Lead-Out : 否
用静音填充抓取中丢失偏移的采样       : 是
去除首尾静音块               : 否
在CRC 计算中使用了空样本       : 是
已用接口                  : Win NT 及 2000 本地 Win32 接口
间隙处理                  : 没检测到,因此追加到上一曲目

所用输出模式: : 内部 WAV 函数
样本格式    : 44.100 Hz; 16 Bit; 立体声


已抓取 CD 的 TOC

     音轨 |    起始    |    长度    |  起始扇区  |  结束扇区  
    --------------------------------------------
      1 |  0:00.00 |  4:12.10 |      0 |  18909
      2 |  4:12.10 |  4:06.57 |  18910 |  37416
      3 |  8:18.67 |  4:33.58 |  37417 |  57949
      4 | 12:52.50 |  4:50.72 |  57950 |  79771
      5 | 17:43.47 |  5:25.45 |  79772 | 104191
      6 | 23:09.17 |  4:12.35 | 104192 | 123126
      7 | 27:21.52 |  4:47.38 | 123127 | 144689
      8 | 32:09.15 |  4:15.07 | 144690 | 163821
      9 | 36:24.22 |  6:58.73 | 163822 | 195244
     10 | 43:23.20 |  4:06.35 | 195245 | 213729
     11 | 47:29.55 |  5:17.22 | 213730 | 237526


音轨  1

     文件名 K:\音乐\动感新势力\2006年\VOL.36\学习资料下川翻唱\01 想い出がいっぱい - 下川みくに.wav

     峰值电平 98.8 %
     抓取速度 1.5 X
     音轨质量 100.0 %
     复制 CRC 6F039D17
     复制成功

音轨  2

     文件名 K:\音乐\动感新势力\2006年\VOL.36\学习资料下川翻唱\02 残酷な天使のテーゼ - 下川みくに.wav

     峰值电平 98.8 %
     抓取速度 1.6 X
     音轨质量 100.0 %
     复制 CRC D6C71A41
     复制成功

音轨  3

     文件名 K:\音乐\动感新势力\2006年\VOL.36\学习资料下川翻唱\03 輪舞?revolution? (feat. 浦嶋りんこ) - 下川みくに.wav

     峰值电平 98.8 %
     抓取速度 1.6 X
     音轨质量 99.9 %
     复制 CRC 426E8073
     复制成功

音轨  4

     文件名 K:\音乐\动感新势力\2006年\VOL.36\学习资料下川翻唱\04 ETERNAL WIND?ほほえみは光る風の中? - 下川みくに.wav

     峰值电平 98.8 %
     抓取速度 1.7 X
     音轨质量 99.9 %
     复制 CRC 234E1989
     复制成功

音轨  5

     文件名 K:\音乐\动感新势力\2006年\VOL.36\学习资料下川翻唱\05 愛?おぼえていますか - 下川みくに.wav

     峰值电平 98.8 %
     抓取速度 2.2 X
     音轨质量 100.0 %
     复制 CRC 4370530A
     复制成功

音轨  6

     文件名 K:\音乐\动感新势力\2006年\VOL.36\学习资料下川翻唱\06 LOVE SONG - 下川みくに.wav

     峰值电平 98.8 %
     抓取速度 2.3 X
     音轨质量 100.0 %
     复制 CRC E5C85313
     复制成功

音轨  7

     文件名 K:\音乐\动感新势力\2006年\VOL.36\学习资料下川翻唱\07 KUJIKENAIKARA! (feat. 野川さくら) - 下川みくに.wav

     峰值电平 98.8 %
     抓取速度 2.4 X
     音轨质量 100.0 %
     复制 CRC B11F423B
     复制成功

音轨  8

     文件名 K:\音乐\动感新势力\2006年\VOL.36\学习资料下川翻唱\08 ブルーウォーター - 下川みくに.wav

     峰值电平 98.8 %
     抓取速度 2.5 X
     音轨质量 100.0 %
     复制 CRC ECFF3E38
     复制成功

音轨  9

     文件名 K:\音乐\动感新势力\2006年\VOL.36\学习资料下川翻唱\09 GooD LucK - 下川みくに.wav

     峰值电平 98.8 %
     抓取速度 2.8 X
     音轨质量 100.0 %
     复制 CRC 4E52B762
     复制成功

音轨 10

     文件名 K:\音乐\动感新势力\2006年\VOL.36\学习资料下川翻唱\10 夢光年 (feat. 影山ヒロノブ) - 下川みくに.wav

     峰值电平 98.8 %
     抓取速度 2.7 X
     音轨质量 100.0 %
     复制 CRC ABAAD531
     复制成功

音轨 11

     文件名 K:\音乐\动感新势力\2006年\VOL.36\学习资料下川翻唱\11 Alone (セルフカバー) - 下川みくに.wav

     峰值电平 98.8 %
     抓取速度 2.9 X
     音轨质量 100.0 %
     复制 CRC F6C7707C
     复制成功

没有错误发生

状态报告结尾

---- CUETools DB Plugin V2.1.6

[CTDB TOCID: 556xqjqzfKbGpjfc9UZ9W9BOkUo-] found
Submit result: 556xqjqzfKbGpjfc9UZ9W9BOkUo- has been confirmed
Track | CTDB Status
  1   | (2/2) Accurately ripped
  2   | (2/2) Accurately ripped
  3   | (2/2) Accurately ripped
  4   | (2/2) Accurately ripped
  5   | (2/2) Accurately ripped
  6   | (2/2) Accurately ripped
  7   | (2/2) Accurately ripped
  8   | (2/2) Accurately ripped
  9   | (2/2) Accurately ripped
10   | (2/2) Accurately ripped
11   | (2/2) Accurately ripped

0

主题

57

帖子

140

积分

新人会员,请认真回复,若恶意回复,直接封号

Rank: 1

积分
140
4#
发表于 2018-5-22 13:33:50 | 只看该作者
Lz辛苦,再接再厉

0

主题

187

帖子

171

积分

乐坛新星

Rank: 2

积分
171
5#
发表于 2018-5-31 22:38:00 | 只看该作者
再次感谢楼主,先下为敬

0

主题

238

帖子

372

积分

乐坛新星

Rank: 2

积分
372
6#
发表于 2018-6-23 05:42:40 | 只看该作者
Lz收的真全!~~~~~~~~~~~

0

主题

254

帖子

303

积分

乐坛新星

Rank: 2

积分
303

社区QQ达人

7#
发表于 2018-6-26 14:23:28 | 只看该作者
谢谢楼主的分享,谢了。
您需要登录后才可以回帖 登录 | 注册

本版积分规则

快速回复 返回顶部 返回列表